Astra 2F+2E+2G (28.2E/28.5E) levi.

Kui teate huvitavaid kanaleid, feede või on teil selleteemalisi küsimusi, siis siin on see koht
Kasutaja avatar
tigekala
Vana kala
Postitusi: 11454
Liitunud: 03:00, 01 Jaan 1970
Asukoht: puhta pees...
    Windows 7 Firefox
On tänanud: 19 korda
On tänatud: 87 korda

Re: Astra 2F+2E+2G (28.2E/28.5E) levi.

PostitusPostitas tigekala » 08:45, 09 Sept 2016

Astra 2E - 28,2Е peal, Euroopa kiir
Kanal Vice UK HD - 11739V, SR29500, FEC8/9, DVB-S2/QPSK, Videoguard

Kasutaja avatar
tigekala
Vana kala
Postitusi: 11454
Liitunud: 03:00, 01 Jaan 1970
Asukoht: puhta pees...
    Windows 7 Firefox
On tänanud: 19 korda
On tänatud: 87 korda

Re: Astra 2F+2E+2G (28.2E/28.5E) levi.

PostitusPostitas tigekala » 07:52, 27 Sept 2016

Astra 2E - 28,2Е peal Euroopa kiir
Operaator Sky UK, kanal Sky Ryder Cup HD - 12344H, SR29500, FEC8/9, DVB-S2/QPSK, Videoguard kanali Sky Sports 4 HD asemel

Kasutaja avatar
tigekala
Vana kala
Postitusi: 11454
Liitunud: 03:00, 01 Jaan 1970
Asukoht: puhta pees...
    Windows 7 Firefox
On tänanud: 19 korda
On tänatud: 87 korda

Re: Astra 2F+2E+2G (28.2E/28.5E) levi.

PostitusPostitas tigekala » 08:20, 28 Sept 2016

Ei teadnudki, et selline kanal paketis olemas on... heh, ise olen siin kirjutanud - viewtopic.php?p=216446#p216446
ca kuni 15-20 HD kanalile saab pildid ette. Kõikidele - millega opereerib British Telecom ja kõikidele, mis on lisapakettides DVB-S + FTA

Pilt

Pilt

Kasutaja avatar
tigekala
Vana kala
Postitusi: 11454
Liitunud: 03:00, 01 Jaan 1970
Asukoht: puhta pees...
    Windows 7 Firefox
On tänanud: 19 korda
On tänatud: 87 korda

Re: Astra 2F+2E+2G (28.2E/28.5E) levi.

PostitusPostitas tigekala » 18:32, 15 Dets 2016

Astra 2G positsiooni 28,2E peal, Euroopa kiir
Colors HD - 11612H, SR23000, FEC2/3, DVB-S2/8PSK, FTA

Keela Adblock

See veebileht toimib ainult reklaamirahadest.
Kui sa näed seda teksti siis sa blokeerid reklaame.
Palun kaalu Adblocki keelamist siin toetamaks Digi-tv.ee veebilehte.


Kasutaja avatar
tigekala
Vana kala
Postitusi: 11454
Liitunud: 03:00, 01 Jaan 1970
Asukoht: puhta pees...
    Windows 7 Firefox
On tänanud: 19 korda
On tänatud: 87 korda

Re: Astra 2F+2E+2G (28.2E/28.5E) levi.

PostitusPostitas tigekala » 10:55, 06 Jaan 2017

Astra 2E positsiooni 28,2Е peal, euroopa kiir
Оperaator Sky UK, kanal Sky Sports 3 HD - 12363V, SR29500, FEC3/4, DVB-S2/QPSK, Videoguard

rootsikunn
Digivanake
Postitusi: 855
Liitunud: 03:00, 01 Jaan 1970
    Windows 10 Mozilla
On tänanud: 10 korda
On tänatud: 104 korda

Re: Astra 2F+2E+2G (28.2E/28.5E) levi.

PostitusPostitas rootsikunn » 13:17, 07 Jaan 2017

tigekala kirjutas:Astra 2G positsiooni 28,2E peal, Euroopa kiir
Colors HD - 11612H, SR23000, FEC2/3, DVB-S2/8PSK, FTA

Pilt

Kasutaja avatar
margusten
Digivanake
Postitusi: 1141
Liitunud: 03:00, 01 Jaan 1970
Asukoht: Tallinn
    Windows 7 Chrome
On tänanud: 8 korda
On tänatud: 49 korda

Re: Astra 2F+2E+2G (28.2E/28.5E) levi.

PostitusPostitas margusten » 13:44, 07 Jaan 2017

Astra 2E UK kiir levib nüüd külma ilmaga jälle paremini.
3M antenniga meil vaadatavad kanalid FTA nüüd:
1_0_1_1969_7E6_2_11A0000_0_0_0.jpg
1_0_1_197B_7E6_2_11A0000_0_0_0.jpg
1_0_1_197A_7E6_2_11A0000_0_0_0.jpg
Sul pole õigusi, et siin postituses manuseid näha
Aerial AS24 polarmount 95E - 13E Ku+C; 2.1M 78.5E C; 1.5M 16E; 2xTriax110Ku; 3M 28.2E; 30W; 27.5W.
DM8000; Humax 2000 Wifi Diablo; GM Triplex; DR.HD F15; TBS-5925 Professional TV Box.

Kasutaja avatar
sergei2004
Entusiast
Postitusi: 197
Liitunud: 03:00, 01 Jaan 1970
    Windows 7 Firefox

Re: Astra 2F+2E+2G (28.2E/28.5E) levi.

PostitusPostitas sergei2004 » 11:46, 10 Jaan 2017

tere,siin huvitaja küsib ,kas meil saab neid kanalid kätte,kui ja mis panniga?


1.SKY UK SPORTS
2.SKY UK SPORTS 2
3.SKY UK SPORTS 3
4.SKY UK SPORTS 5
5.SKY UK SPORTS
6.SKY SPORT F1


tänud

Foorumil
vaaderpass
Uudistaja
Postitusi: 8
Liitunud: 15:30, 29 Sept 2008
    Macintosh Safari
On tänanud: 7 korda

Re: Astra 2F+2E+2G (28.2E/28.5E) levi.

PostitusPostitas vaaderpass » 15:18, 10 Jaan 2017

Pärnus 110-sega, pea keskel, sky sports 3, 4 ja 5 peaaegu iga ilmaga. News, F1, 1 ja 2 nõrgemad - paksema pilve korral kaovad.

Kasutaja avatar
sergei2004
Entusiast
Postitusi: 197
Liitunud: 03:00, 01 Jaan 1970
    Windows 7 Firefox

Re: Astra 2F+2E+2G (28.2E/28.5E) levi.

PostitusPostitas sergei2004 » 15:48, 10 Jaan 2017

aga õhtuti ja öösel kuidas?

Kasutaja avatar
margusten
Digivanake
Postitusi: 1141
Liitunud: 03:00, 01 Jaan 1970
Asukoht: Tallinn
    Windows 7 Chrome
On tänanud: 8 korda
On tänatud: 49 korda

Re: Astra 2F+2E+2G (28.2E/28.5E) levi.

PostitusPostitas margusten » 08:35, 11 Jaan 2017

Mul Tallinna lähedal 110Triax annab samad tulemused mis vaaderpass kirjutas.
Õhtul ja öösel ära ei kao. Euroopa kiir.
Aerial AS24 polarmount 95E - 13E Ku+C; 2.1M 78.5E C; 1.5M 16E; 2xTriax110Ku; 3M 28.2E; 30W; 27.5W.
DM8000; Humax 2000 Wifi Diablo; GM Triplex; DR.HD F15; TBS-5925 Professional TV Box.

Kasutaja avatar
peeter3000
Digivanake
Postitusi: 5894
Liitunud: 02:00, 15 Nov 2006
Asukoht: Tallinn
    Windows 10 Firefox
On tänanud: 41 korda
On tänatud: 21 korda

Re: Astra 2F+2E+2G (28.2E/28.5E) levi.

PostitusPostitas peeter3000 » 13:24, 15 Jaan 2017

11612 H Al Jazeera HD, mul pilti pole, audio on, ütleb: videot pole..signaal 100
DVB-T/T2:Eesti-SoomeDigi/ DVB-C:Starman HD/DVB-S: Mabo 125x140cm/TBS5922

Kasutaja avatar
andres66
Õpetaja
Postitusi: 1076
Liitunud: 02:00, 08 Jaan 2007
Asukoht: Põltsamaa
    Windows 10 Firefox
On tänatud: 15 korda

Re: Astra 2F+2E+2G (28.2E/28.5E) levi.

PostitusPostitas andres66 » 14:05, 15 Jaan 2017

peeter3000 kirjutas:11612 H Al Jazeera HD, mul pilti pole, audio on, ütleb: videot pole..signaal 100


TBS arvutikaardiga vaatamine? Koodeki probleem siis mingisugune...

Kõik need neli HD vabakanalit töötavad normaalselt, pilt ja heli olemas.

az.jpg

#################

Mediainfo Al Jazeera HD:

Kood: Vali kõik

General
ID                                       : 2099 (0x833)
Complete name                            : C:\Users\Andres\Desktop\20170115 1524 - Al Jazeera HD - Newshour.ts
Format                                   : MPEG-TS
File size                                : 194 MiB
Duration                                 : 3 min 2 s
Overall bit rate mode                    : Variable
Overall bit rate                         : 8 870 kb/s

Video
ID                                       : 2307 (0x903)
Menu ID                                  : 55415 (0xD877)
Format                                   : AVC
Format/Info                              : Advanced Video Codec
Format profile                           : High@L4
Format settings, CABAC                   : Yes
Format settings, ReFrames                : 3 frames
Codec ID                                 : 27
Duration                                 : 3 min 2 s
Bit rate                                 : 7 850 kb/s
Maximum bit rate                         : 31.0 Mb/s
Width                                    : 1 920 pixels
Height                                   : 1 080 pixels
Display aspect ratio                     : 16:9
Frame rate                               : 25.000 FPS
Color space                              : YUV
Chroma subsampling                       : 4:2:0
Bit depth                                : 8 bits
Scan type                                : Interlaced
Scan type, store method                  : Separated fields
Scan order                               : Top Field First
Bits/(Pixel*Frame)                       : 0.151
Stream size                              : 171 MiB (88%)
Color range                              : Limited
Color primaries                          : BT.709
Transfer characteristics                 : BT.709
Matrix coefficients                      : BT.709

Audio #1
ID                                       : 2305 (0x901)
Menu ID                                  : 55415 (0xD877)
Format                                   : AC-3
Format/Info                              : Audio Coding 3
Mode extension                           : CM (complete main)
Format settings, Endianness              : Big
Codec ID                                 : 6
Duration                                 : 3 min 2 s
Bit rate mode                            : Constant
Bit rate                                 : 384 kb/s
Maximum bit rate                         : 31.0 Mb/s
Channel(s)                               : 6 channels
Channel positions                        : Front: L C R, Side: L R, LFE
Sampling rate                            : 48.0 kHz
Frame rate                               : 31.250 FPS (1536 spf)
Compression mode                         : Lossy
Delay relative to video                  : -920 ms
Stream size                              : 8.36 MiB (4%)
Language                                 : English

Audio #2
ID                                       : 2306 (0x902)
Menu ID                                  : 55415 (0xD877)
Format                                   : MPEG Audio
Format version                           : Version 1
Format profile                           : Layer 2
Codec ID                                 : 4
Duration                                 : 3 min 2 s
Bit rate mode                            : Constant
Bit rate                                 : 192 kb/s
Maximum bit rate                         : 31.0 Mb/s
Channel(s)                               : 2 channels
Sampling rate                            : 48.0 kHz
Compression mode                         : Lossy
Delay relative to video                  : -930 ms
Stream size                              : 4.18 MiB (2%)
Language                                 : nar

Menu
ID                                       : 256 (0x100)
Menu ID                                  : 55415 (0xD877)
Duration                                 : 3 min 2 s
List                                     : 2306 (0x902) (MPEG Audio, nar) / 2305 (0x901) (AC-3, English) / 2307 (0x903) (AVC)
Language                                 : nar / English


Mediainfo Daystar HD:

Kood: Vali kõik

General
ID                                       : 2099 (0x833)
Complete name                            : C:\Users\Andres\Desktop\20170115 1533 - DAYSTAR HD - Recipe Book.ts
Format                                   : MPEG-TS
File size                                : 146 MiB
Duration                                 : 2 min 2 s
Overall bit rate mode                    : Variable
Overall bit rate                         : 10.0 Mb/s

Video
ID                                       : 2311 (0x907)
Menu ID                                  : 55410 (0xD872)
Format                                   : AVC
Format/Info                              : Advanced Video Codec
Format profile                           : High@L4
Format settings, CABAC                   : Yes
Format settings, ReFrames                : 4 frames
Codec ID                                 : 27
Duration                                 : 2 min 2 s
Bit rate                                 : 9 324 kb/s
Maximum bit rate                         : 31.0 Mb/s
Width                                    : 1 920 pixels
Height                                   : 1 080 pixels
Display aspect ratio                     : 16:9
Frame rate                               : 25.000 FPS
Standard                                 : Component
Color space                              : YUV
Chroma subsampling                       : 4:2:0
Bit depth                                : 8 bits
Scan type                                : Interlaced
Scan type, store method                  : Separated fields
Scan order                               : Top Field First
Bits/(Pixel*Frame)                       : 0.180
Stream size                              : 136 MiB (93%)
Color range                              : Limited
Color primaries                          : BT.709
Transfer characteristics                 : BT.709
Matrix coefficients                      : BT.709

Audio
ID                                       : 2312 (0x908)
Menu ID                                  : 55410 (0xD872)
Format                                   : AC-3
Format/Info                              : Audio Coding 3
Mode extension                           : CM (complete main)
Format settings, Endianness              : Big
Codec ID                                 : 6
Duration                                 : 2 min 2 s
Bit rate mode                            : Constant
Bit rate                                 : 192 kb/s
Maximum bit rate                         : 31.0 Mb/s
Channel(s)                               : 2 channels
Channel positions                        : Front: L R
Sampling rate                            : 48.0 kHz
Frame rate                               : 31.250 FPS (1536 spf)
Compression mode                         : Lossy
Delay relative to video                  : -882 ms
Stream size                              : 2.80 MiB (2%)
Language                                 : English

Menu
ID                                       : 258 (0x102)
Menu ID                                  : 55410 (0xD872)
Duration                                 : 2 min 2 s
List                                     : 2313 (0x909) (MPEG Audio) / 2312 (0x908) (AC-3, English) / 2311 (0x907) (AVC) / 3844 (0xF04) () / 3840 (0xF00) () / 3843 (0xF03) () / 3842 (0xF02) () / 3841 (0xF01) ()
Language                                 :  / English
Sul pole õigusi, et siin postituses manuseid näha
Viimati muutis andres66, 15:38, 15 Jaan 2017, muudetud 2 korda kokku.
# Mut@nt HD51 # Mut@nt HD2400 #
# 85E, 42E, 36E, 31.5E, 28.2E, 23.5E, 19.2E, 16E, 13E, 9E, 7E, 4.9E, 0.8W, 4W, 5W, 12.5W, 27.5W, 30W #
# Zuum, Viasat, HD+, SRG, Fransat, Tivusat kaardid # NTVplus CI+, Tricolor CI+ # Panasonic TX-P42GT60E #

Kasutaja avatar
peeter3000
Digivanake
Postitusi: 5894
Liitunud: 02:00, 15 Nov 2006
Asukoht: Tallinn
    Windows 10 Firefox
On tänanud: 41 korda
On tänatud: 21 korda

Re: Astra 2F+2E+2G (28.2E/28.5E) levi.

PostitusPostitas peeter3000 » 15:17, 15 Jaan 2017

pole sellist asja varem olnud.. pana tv on.. pole vist seda kanalit kunagi hd-s sellega näidanud.. sd on ok.

Al Jazeera HD ja Tv Record HD ei tule, Daystar HD näitab pilti
DVB-T/T2:Eesti-SoomeDigi/ DVB-C:Starman HD/DVB-S: Mabo 125x140cm/TBS5922

Kasutaja avatar
tigekala
Vana kala
Postitusi: 11454
Liitunud: 03:00, 01 Jaan 1970
Asukoht: puhta pees...
    Windows 7 Firefox
On tänanud: 19 korda
On tänatud: 87 korda

Re: Astra 2F+2E+2G (28.2E/28.5E) levi.

PostitusPostitas tigekala » 07:11, 20 Jaan 2017

Astra 2G positsioonil 28,2Е Euroopa kiir
Operaator Sky UK, kanal Bloomberg TV Europe HD service 55392 - 11686V, SR22000, FEC5/6, DVB-S/QPSK, FTA

Pilt

Keela Adblock

See veebileht toimib ainult reklaamirahadest.
Kui sa näed seda teksti siis sa blokeerid reklaame.
Palun kaalu Adblocki keelamist siin toetamaks Digi-tv.ee veebilehte.



Mine

Kes on foorumil

Kasutajad foorumit lugemas: Registreeritud kasutajaid pole ja 3 külalist